DNS SERVER AENDERNum der staatlichen Zensur zu umgehen. Sollten wir von eurem Provider geseprrt werden, nutzt den TOR BROWSER oder ändert euren DNS SERVER.

Filmwünsche können bei uns im Forum abgegeben werden

Wir Speichern Nicht




 
 
 
Top Releases
Alpha.2018.German.DTS.DL.720...
Alpha.2018.German.DTS.DL.108...
Batman.Ninja.2018.German.DL....
Aufbruch.zum.Mond.2018.IMAX....
Kindeswohl.German.DL.1080p.B...
The.Accountant.-.Berechne.de...
Kindeswohl.German.DL.720p.Bl...
Durch.die.Wand.2017.READ.NFO...
Durch.die.Wand.2017.GERMAN.7...
Inside.WikiLeaks.Die.fuenfte...

Cinedubs
Dont.Worry.weglaufen.geht.ni...
Dont.Worry.weglaufen.geht.ni...
Gaensehaut.2.Gruseliges.Hall...
Aquaman.TS.LD.German.DL.720p...
Eho.Echo.German.720p.WEBRip....
Eho.Echo.German.1080p.WEBRip...
Bad.Times.at.the.El.Royale.2...
Bad.Spies.2018.German.DL.AC3...
Aquaman.2018.GERMAN.AC3.MD.7...
Bad.Spies.German.DL.AC3.Dubb...

Neuerscheinungen 2018-19
Ein.verlockendes.Spiel.2008....
Ein.verlockendes.Spiel.2008....
Welcome.Home.2018.German.AC3...
Der.mit.dem.Schlag.2016.GERM...
Kryo.2016.GERMAN.720p.HDTV.x...
The.Nun.2018.MULTi.COMPLETE....
Mein.bester.Feind.German.AC3...
Superfly.2018.German.AC3.5.1...
Superfly.2018.German.DL.AC3....
Superfly.2018.German.DL.AC3....

XXX
NinaKayy.17.05.22.Deep.Throa...
RealityJunkies.18.12.28.Diam...
SexWithMuslims.18.12.28.Ashl...
NinaKayy.17.05.20.POV.Blowjo...
Private.18.12.27.Michelle.Ca...
Private.Specials.Sexy.Celebr...
RealityJunkies.Babysitter.Di...
PornMegaLoad.18.12.27.Shanno...
PornMegaLoad.18.12.26.Carmen...
Nubiles.18.12.25.Anoli.Tickl...
PublicAgent.18.12.25.Sophie....
Private.18.12.25.Katrin.Tequ...
RoccoSiffredi.18.12.27.Sasha...
SexArt.18.12.26.Luna.C.Watch...
PureMature.18.12.26.Summer.H...
PureTaboo.18.12.27.Natasha.N...
PornMegaLoad.18.12.25.Amber....
PureTaboo.18.12.25.Emily.Wil...
NinaKayy.17.05.20.Ass.Twerk....
PrivateSociety.18.12.26.Putt...

3D
Blade.Runner.2049.3D.2017.Ge...
Walhalla.Rising.3D.2009.DUAL...
Sleepwalker.3D.2011.DUAL.COM...
Bis.an.die.Grenzen.des.Unive...
Best.of.3D.vol.13.-.15.GERMA...
Limbradur.und.die.Magie.der....
Kaluoka.Hina.Das.Zauberriff....
Limbradur.und.die.Magie.der....
Smallfoot.3D.2018.COMPLETE.B...
Smallfoot.Ein.eisigartiges.A...
Skyscraper.3D.2018.German.DL...
Meg.3D.2018.MULTi.COMPLETE.B...
Meg.3D.2018.German.DL.1080p....
Gans.im.Glueck.3D.2018.MULTi...
The.Art.of.Flight.3D.2011.Ge...

Old_Stuff
Todfreunde.aka.Bad.Influence...
Animatrix.2003.German.DL.108...
Animatrix.2003.German.DL.720...
Akte.X.S06.German.DTS.DL.108...
The.Beauty.of.Gemina.Minor.S...
ZZ.Top.Live.from.Texas.2008....
Peter.Hase.2018.German.DL.10...
Akte.X.S05.German.DTS.DL.108...
Akte.X.S04.German.DTS.DL.108...
Akte.X.S03.German.DTS.DL.108...
Dunkirk.1958.COMPLETE.BLURAY...
Das.Wunder.von.Manhattan.199...
The.Amazing.Spiderman.2.Rise...
Rise.of.the.Predator.2014.Ge...
Detective.Dee.und.das.Geheim...

Filme
Extrem.laut.und.unglaublich....
Das.Leuchten.der.Erinnerung....
Johnny.English.Man.lebt.nur....
Learning.to.Drive.Fahrstunde...
Stonehearst.Asylum.Diese.Mau...
Open.Windows.2014.German.DL....
Dame.Koenig.As.Spion.German....
Toetet.Smoochy.2002.GERMAN.D...
Last.Bullet.Showdown.der.Auf...
Rapunzel.Fuer.immer.verfoehn...
Rapunzel.Fuer.immer.verfoehn...
Wildes.Berlin.GERMAN.DOKU.72...
Denn.zum.Kuessen.sind.sie.da...
Unheimliche.Begegnung.der.dr...
Die.Geheimnisse.der.Spiderwi...
Insel.der.Piraten.1983.Germa...
Der.Buerotrottel.1961.German...
Siebzehn.2017.GERMAN.1080p.W...
Wynonna.Earp.S01.COMPLETE.Ge...
Wynonna.Earp.S01.COMPLETE.Ge...
The.Big.Bang.Theory.S12.Germ...
The.Big.Bang.Theory.S12.Germ...
S.W.A.T.2017.S02.German.DD51...
S.W.A.T.2017.S02.German.DD51...

 
 
Alpha.2018.German.DTS.DL.1080p.BluRay.x264-COiNCiDENCE

Jahr: 2018
Genre: Abenteuer, Drama
Sprache: Deutsch DTS | Englisch DTS
Laufzeit: 1h 36mn
Bitrate: 6 450 Kbps
Format: MKV
Größe: 4.35 GiB
Release:

Beschreibung:

Vor 21.000 Jahren befindet sich die Welt in der Hand des Eises. Wissenschaftler gehen heute davon aus, dass 32% der nördlichen Hemisphäre während der letzten Eiszeit von Gletschern bedeckt waren. In dieser unwirtlichen Zeit kämpfen die Solutréen ums Überleben. Als eine Jagdexpedition fehlschlägt, muss sich ein junger Kämpfer der Solutréen allein gegen die erbarmungslose Natur behaupten. Beim Kampf ums Überleben bekommt er es nicht nur mit dem unbarmherzigen Klima zu tun. Auch tierische Jäger haben es auf die scheinbar leichte Beute abgesehen.



Complete name                            : coincidence-alpha-1080p.mkv
Format                                   : Matroska
Format version                           : Version 4 / Version 2
File size                                : 4.35 GiB
Duration                                 : 1h 36mn
Overall bit rate                         : 6 450 Kbps
Encoded date                             : UTC 2019-01-15 10:21:54
Writing application                      : mkvmerge v8.3.0 ('Over the Horizon') 64bit
Writing library                          : libebml v1.3.1 + libmatroska v1.4.2
DURATION                                 : 01:24:35.988000000
NUMBER_OF_FRAMES                         : 209
NUMBER_OF_BYTES                          : 4386
_STATISTICS_WRITING_APP                  : mkvmerge v8.3.0 ('Over the Horizon') 64bit
_STATISTICS_WRITING_DATE_UTC             : 2019-01-15 10:21:54
_STATISTICS_TAGS                         : BPS DURATION NUMBER_OF_FRAMES NUMBER_OF_BYTES

Video
ID                                       : 1
Format                                   : AVC
Format/Info                              : Advanced Video Codec
Format profile                           : High@L4.1
Format settings, CABAC                   : Yes
Format settings, ReFrames                : 5 frames
Codec ID                                 : V_MPEG4/ISO/AVC
Duration                                 : 1h 36mn
Bit rate                                 : 3 303 Kbps
Width                                    : 1 920 pixels
Height                                   : 808 pixels
Display aspect ratio                     : 2.40:1
Frame rate mode                          : Constant
Frame rate                               : 23.976 fps
Color space                              : YUV
Chroma subsampling                       : 4:2:0
Bit depth                                : 8 bits
Scan type                                : Progressive
Bits/(Pixel*Frame)                       : 0.089
Stream size                              : 2.23 GiB (51%)
Writing library                          : x264 core 157 r2935 545de2f
Encoding settings                        : cabac=1 / ref=5 / deblock=1:-1:-1 / analyse=0x3:0x113 / me=umh / subme=10 / psy=1 / psy_rd=1.00:0.00 / mixed_ref=1 / me_range=16 / chroma_me=1 / trellis=2 / 8x8dct=1 / cqm=0 / deadzone=21,11 / fast_pskip=0 / chroma_qp_offset=-2 / threads=25 / lookahead_threads=2 / sliced_threads=0 / nr=0 / decimate=1 / interlaced=0 / bluray_compat=0 / constrained_intra=0 / bframes=5 / b_pyramid=2 / b_adapt=1 / b_bias=0 / direct=3 / weightb=1 / open_gop=0 / weightp=1 / keyint=250 / keyint_min=23 / scenecut=40 / intra_refresh=0 / rc_lookahead=40 / rc=crf / mbtree=1 / crf=20.0 / qcomp=0.60 / qpmin=16 / qpmax=69 / qpstep=4 / ip_ratio=1.40 / aq=1:1.00
Language                                 : English
Default                                  : Yes
Forced                                   : No
DURATION                                 : 01:36:30.952000000
NUMBER_OF_FRAMES                         : 138844
NUMBER_OF_BYTES                          : 2481977483
_STATISTICS_WRITING_APP                  : mkvmerge v8.3.0 ('Over the Horizon') 64bit
_STATISTICS_WRITING_DATE_UTC             : 2019-01-15 10:21:54
_STATISTICS_TAGS                         : BPS DURATION NUMBER_OF_FRAMES NUMBER_OF_BYTES

Audio #1
ID                                       : 2
Format                                   : DTS
Format/Info                              : Digital Theater Systems
Mode                                     : 16
Format settings, Endianness              : Big
Codec ID                                 : A_DTS
Duration                                 : 1h 36mn
Bit rate mode                            : Constant
Bit rate                                 : 1 509 Kbps
Channel(s)                               : 6 channels
Channel positions                        : Front: L C R, Side: L R, LFE
Sampling rate                            : 48.0 KHz
Bit depth                                : 16 bits
Compression mode                         : Lossy
Stream size                              : 1.02 GiB (23%)
Language                                 : German
Default                                  : Yes
Forced                                   : No

Audio #2
ID                                       : 3
Format                                   : DTS
Format/Info                              : Digital Theater Systems
Mode                                     : 16
Format settings, Endianness              : Big
Codec ID                                 : A_DTS
Duration                                 : 1h 36mn
Bit rate mode                            : Constant
Bit rate                                 : 1 509 Kbps
Channel(s)                               : 6 channels
Channel positions                        : Front: L C R, Side: L R, LFE
Sampling rate                            : 48.0 KHz
Bit depth                                : 16 bits
Compression mode                         : Lossy
Stream size                              : 1.02 GiB (23%)
Language                                 : English
Default                                  : No
Forced                                   : No

Text #1
ID                                       : 4
Format                                   : UTF-8
Codec ID                                 : S_TEXT/UTF8
Codec ID/Info                            : UTF-8 Plain Text
Title                                    : German-Forced
Language                                 : German
Default                                  : Yes
Forced                                   : Yes

Text #2
ID                                       : 5
Format                                   : UTF-8
Codec ID                                 : S_TEXT/UTF8
Codec ID/Info                            : UTF-8 Plain Text
Title                                    : English-Forced
Language                                 : English
Default                                  : No
Forced                                   : No


Download:
Share Online Share OnlineShare OnlineShare Online
 

Kommentare