DNS SERVER AENDERNum der staatlichen Zensur zu umgehen. Sollten wir von eurem Provider geseprrt werden, nutzt den TOR BROWSER oder ändert euren DNS SERVER.

Filmwünsche können bei uns im Forum abgegeben werden

Wir Speichern Nicht




 
 
 
Top Releases
Manchester.by.the.Sea.2016.G...
Summer.of.84.2018.German.DL....
Mile.22.2018.German.DL.AC3.D...
Mile.22.2018.German.DL.AC3.D...
LBJ.2016.German.DL.1080p.Blu...
LBJ.2016.German.DL.1080p.Blu...
LBJ.2016.German.720p.BluRay....
Es.war.einmal.ein.Deadpool.2...
Es.war.einmal.ein.Deadpool.2...
American.Animals.2018.German...

Cinedubs
Dont.Worry.weglaufen.geht.ni...
Dont.Worry.weglaufen.geht.ni...
Gaensehaut.2.Gruseliges.Hall...
Aquaman.TS.LD.German.DL.720p...
Eho.Echo.German.720p.WEBRip....
Eho.Echo.German.1080p.WEBRip...
Bad.Times.at.the.El.Royale.2...
Bad.Spies.2018.German.DL.AC3...
Aquaman.2018.GERMAN.AC3.MD.7...
Bad.Spies.German.DL.AC3.Dubb...

Neuerscheinungen 2018-19
Ein.verlockendes.Spiel.2008....
Ein.verlockendes.Spiel.2008....
Welcome.Home.2018.German.AC3...
Der.mit.dem.Schlag.2016.GERM...
Kryo.2016.GERMAN.720p.HDTV.x...
The.Nun.2018.MULTi.COMPLETE....
Mein.bester.Feind.German.AC3...
Superfly.2018.German.AC3.5.1...
Superfly.2018.German.DL.AC3....
Superfly.2018.German.DL.AC3....

XXX
TransAngels.18.10.27.Domino....
WcpClub.18.12.28.Jayden.Star...
TransAngels.18.09.29.Aubrey....
TransAngels.18.11.03.Jane.Ma...
TransAngels.18.10.08.Natalie...
TransAngels.18.09.20.Chanel....
Shoplyfter.18.12.26.Harmony....
TransAngels.18.11.24.Katrina...
Sounds.Of.Fury.XXX.720p.WEBR...
WankItNow.18.12.25.Laura.Chr...
WildOnCam.18.12.26.Britney.A...
TransAngels.18.12.08.Nikki.J...
TransAngels.18.10.25.Aubrey....
ThisGirlSucks.18.12.26.Cara....
TransAngels.18.09.08.Alisia....
WhenGirlsPlay.18.12.27.Hanna...
WhenGirlsPlay.18.12.25.Julia...
StepSiblingsCaught.18.12.27....
SimplyAnal.18.12.27.Camila.S...
TransAngels.18.09.17.Korra.D...

3D
Blade.Runner.2049.3D.2017.Ge...
Walhalla.Rising.3D.2009.DUAL...
Sleepwalker.3D.2011.DUAL.COM...
Bis.an.die.Grenzen.des.Unive...
Best.of.3D.vol.13.-.15.GERMA...
Limbradur.und.die.Magie.der....
Kaluoka.Hina.Das.Zauberriff....
Limbradur.und.die.Magie.der....
Smallfoot.3D.2018.COMPLETE.B...
Smallfoot.Ein.eisigartiges.A...
Skyscraper.3D.2018.German.DL...
Meg.3D.2018.MULTi.COMPLETE.B...
Meg.3D.2018.German.DL.1080p....
Gans.im.Glueck.3D.2018.MULTi...
The.Art.of.Flight.3D.2011.Ge...

Old_Stuff
Todfreunde.aka.Bad.Influence...
Animatrix.2003.German.DL.108...
Animatrix.2003.German.DL.720...
Akte.X.S06.German.DTS.DL.108...
The.Beauty.of.Gemina.Minor.S...
ZZ.Top.Live.from.Texas.2008....
Peter.Hase.2018.German.DL.10...
Akte.X.S05.German.DTS.DL.108...
Akte.X.S04.German.DTS.DL.108...
Akte.X.S03.German.DTS.DL.108...
Dunkirk.1958.COMPLETE.BLURAY...
Das.Wunder.von.Manhattan.199...
The.Amazing.Spiderman.2.Rise...
Rise.of.the.Predator.2014.Ge...
Detective.Dee.und.das.Geheim...

Filme
Two.and.a.half.Men.S01.COMPL...
Lucky.Number.Slevin.2006.Ger...
Der.Club.der.toten.Dichter.1...
FBI.S01.GERMAN.DUBBED.720p.H...
The.Big.Bang.Theory.S12.GERM...
The.Big.Bang.Theory.S12.GERM...
John.Carter.vom.Mars.Princes...
Shapeshifter.2005.DUAL.COMPL...
Johnny.English.Man.lebt.nur....
Extrem.laut.und.unglaublich....
Das.Leuchten.der.Erinnerung....
Johnny.English.Man.lebt.nur....
Learning.to.Drive.Fahrstunde...
Stonehearst.Asylum.Diese.Mau...
Open.Windows.2014.German.DL....
Dame.Koenig.As.Spion.German....
Toetet.Smoochy.2002.GERMAN.D...
Last.Bullet.Showdown.der.Auf...
Rapunzel.Fuer.immer.verfoehn...
Rapunzel.Fuer.immer.verfoehn...
Wildes.Berlin.GERMAN.DOKU.72...
Denn.zum.Kuessen.sind.sie.da...
Unheimliche.Begegnung.der.dr...
Die.Geheimnisse.der.Spiderwi...

 
 
Mile.22.2018.German.DL.AC3.Dubbed.1080p.BluRay.x264-PsO

Jahr: 2018
Genre: Action, Abenteuer
Sprache: Deutsch AC3 | Englisch AC3
Laufzeit: 1h 34mn
Bitrate: 10.3 Mbps
Format: MKV
Größe: 6.81 GiB
Release:

Beschreibung:

Wenn Diplomatie und herkömmliche militärische Lösungen versagen oder nicht als Option gesehen werden, greift die amerikanische Regierung auf Elite-Agent James Silva (Mark Wahlberg) und seine Mitstreiter zurück. Wie Geister agieren sie außerhalb staatlicher Grenzen und sind kaum jemanden Rechenschaft schuldig. Eines Tages erhalten Silva und sein Team in der Botschaft eines südostasiatischen Landes den Auftrag, eine große Menge radioaktives Material wiederzubeschaffen, das verwendet werden könnte, um Atombomben zu bauen und mehrere Großstädte auszulöschen. Da schlägt der Spion Li Noor (Iko Uwais) einen Deal vor: Er möchte im Austausch gegen seine Hilfe schnellstmöglich außer Landes gebracht werden. Das wiederum wollen Li Noors Feinde nicht zulassen und sorgen so dafür, dass der 22 Meilen lange Weg von der Botschaft zum Flughafen zu einem Spießrutenlauf wird…



Complete name                            : pso-mile22_bd.1080p.mkv
Format                                   : Matroska
Format version                           : Version 4 / Version 2
File size                                : 6.81 GiB
Duration                                 : 1h 34mn
Overall bit rate                         : 10.3 Mbps
Encoded date                             : UTC 2019-01-15 19:35:36
Writing application                      : mkvmerge v8.0.0 ('Til The Day That I Die') 64bit
Writing library                          : libebml v1.3.1 + libmatroska v1.4.2
DURATION                                 : 01:32:37.349000000
NUMBER_OF_FRAMES                         : 935
NUMBER_OF_BYTES                          : 35178
_STATISTICS_WRITING_APP                  : mkvmerge v8.0.0 ('Til The Day That I Die') 64bit
_STATISTICS_WRITING_DATE_UTC             : 2019-01-15 19:35:36
_STATISTICS_TAGS                         : BPS DURATION NUMBER_OF_FRAMES NUMBER_OF_BYTES

Video
ID                                       : 1
Format                                   : AVC
Format/Info                              : Advanced Video Codec
Format profile                           : High@L4.1
Format settings, CABAC                   : Yes
Format settings, ReFrames                : 5 frames
Codec ID                                 : V_MPEG4/ISO/AVC
Duration                                 : 1h 34mn
Bit rate                                 : 9 277 Kbps
Width                                    : 1 920 pixels
Height                                   : 800 pixels
Display aspect ratio                     : 2.40:1
Frame rate mode                          : Constant
Frame rate                               : 23.976 fps
Color space                              : YUV
Chroma subsampling                       : 4:2:0
Bit depth                                : 8 bits
Scan type                                : Progressive
Bits/(Pixel*Frame)                       : 0.252
Stream size                              : 6.00 GiB (88%)
Writing library                          : x264 core 157 r2935 545de2f
Encoding settings                        : cabac=1 / ref=5 / deblock=1:-3:-3 / analyse=0x3:0x113 / me=umh / subme=8 / psy=1 / psy_rd=1.00:0.00 / mixed_ref=1 / me_range=32 / chroma_me=1 / trellis=2 / 8x8dct=1 / cqm=0 / deadzone=21,11 / fast_pskip=1 / chroma_qp_offset=-2 / threads=25 / lookahead_threads=4 / sliced_threads=0 / nr=0 / decimate=1 / interlaced=0 / bluray_compat=0 / constrained_intra=0 / bframes=3 / b_pyramid=2 / b_adapt=2 / b_bias=0 / direct=3 / weightb=1 / open_gop=0 / weightp=2 / keyint=240 / keyint_min=24 / scenecut=40 / intra_refresh=0 / rc_lookahead=50 / rc=2pass / mbtree=1 / bitrate=9277 / ratetol=1.0 / qcomp=0.60 / qpmin=0 / qpmax=69 / qpstep=4 / cplxblur=20.0 / qblur=0.5 / ip_ratio=1.40 / aq=3:0.80
Default                                  : Yes
Forced                                   : No
DURATION                                 : 01:34:40.050000000
NUMBER_OF_FRAMES                         : 136185
NUMBER_OF_BYTES                          : 6582484324
_STATISTICS_WRITING_APP                  : mkvmerge v8.0.0 ('Til The Day That I Die') 64bit
_STATISTICS_WRITING_DATE_UTC             : 2019-01-15 19:35:36
_STATISTICS_TAGS                         : BPS DURATION NUMBER_OF_FRAMES NUMBER_OF_BYTES

Audio #1
ID                                       : 2
Format                                   : AC-3
Format/Info                              : Audio Coding 3
Mode extension                           : CM (complete main)
Format settings, Endianness              : Big
Codec ID                                 : A_AC3
Duration                                 : 1h 34mn
Bit rate mode                            : Constant
Bit rate                                 : 384 Kbps
Channel(s)                               : 6 channels
Channel positions                        : Front: L C R, Side: L R, LFE
Sampling rate                            : 48.0 KHz
Bit depth                                : 16 bits
Compression mode                         : Lossy
Delay relative to video                  : 29ms
Stream size                              : 261 MiB (4%)
Language                                 : German
Default                                  : Yes
Forced                                   : Yes
DURATION                                 : 01:34:39.872000000
NUMBER_OF_FRAMES                         : 177496
NUMBER_OF_BYTES                          : 454389760
_STATISTICS_WRITING_APP                  : mkvmerge v8.0.0 ('Til The Day That I Die') 64bit
_STATISTICS_WRITING_DATE_UTC             : 2019-01-15 19:35:36
_STATISTICS_TAGS                         : BPS DURATION NUMBER_OF_FRAMES NUMBER_OF_BYTES

Audio #2
ID                                       : 3
Format                                   : AC-3
Format/Info                              : Audio Coding 3
Mode extension                           : CM (complete main)
Format settings, Endianness              : Big
Codec ID                                 : A_AC3
Duration                                 : 1h 34mn
Bit rate mode                            : Constant
Bit rate                                 : 640 Kbps
Channel(s)                               : 6 channels
Channel positions                        : Front: L C R, Side: L R, LFE
Sampling rate                            : 48.0 KHz
Bit depth                                : 16 bits
Compression mode                         : Lossy
Stream size                              : 435 MiB (6%)
Language                                 : English
Default                                  : No
Forced                                   : No
DURATION                                 : 01:11:25.239000000
NUMBER_OF_FRAMES                         : 42
NUMBER_OF_BYTES                          : 853
_STATISTICS_WRITING_APP                  : mkvmerge v8.0.0 ('Til The Day That I Die') 64bit
_STATISTICS_WRITING_DATE_UTC             : 2019-01-15 19:35:36
_STATISTICS_TAGS                         : BPS DURATION NUMBER_OF_FRAMES NUMBER_OF_BYTES

Text #1
ID                                       : 4
Format                                   : UTF-8
Codec ID                                 : S_TEXT/UTF8
Codec ID/Info                            : UTF-8 Plain Text
Title                                    : forced
Language                                 : German
Default                                  : Yes
Forced                                   : Yes
DURATION                                 : 01:25:02.013000000
NUMBER_OF_FRAMES                         : 1403
NUMBER_OF_BYTES                          : 44361
_STATISTICS_WRITING_APP                  : mkvmerge v8.0.0 ('Til The Day That I Die') 64bit
_STATISTICS_WRITING_DATE_UTC             : 2019-01-15 19:35:36
_STATISTICS_TAGS                         : BPS DURATION NUMBER_OF_FRAMES NUMBER_OF_BYTES

Text #2
ID                                       : 5
Format                                   : UTF-8
Codec ID                                 : S_TEXT/UTF8
Codec ID/Info                            : UTF-8 Plain Text
Language                                 : German
Default                                  : No
Forced                                   : No

Text #3
ID                                       : 6
Format                                   : UTF-8
Codec ID                                 : S_TEXT/UTF8
Codec ID/Info                            : UTF-8 Plain Text
Title                                    : Forced
Language                                 : English
Default                                  : No
Forced                                   : No

Text #4
ID                                       : 7
Format                                   : UTF-8
Codec ID                                 : S_TEXT/UTF8
Codec ID/Info                            : UTF-8 Plain Text
Language                                 : English
Default                                  : No
Forced                                   : No


Download:
Share Online Share OnlineShare OnlineShare Online
 

Kommentare